<?xml version="1.0" standalone="no"?>
<!DOCTYPE svg PUBLIC "-//W3C//DTD SVG 1.1//EN" "http://www.w3.org/Graphics/SVG/1.1/DTD/svg11.dtd" >
<svg xmlns="http://www.w3.org/2000/svg" xmlns:xlink="http://www.w3.org/1999/xlink" version="1.1">
<metadata></metadata>
<defs>
<font id="boulevard_beta_1bold" horiz-adv-x="946" >
<font-face units-per-em="2048" ascent="1536" descent="-512" />
<missing-glyph horiz-adv-x="573" />
<glyph horiz-adv-x="0" />
<glyph unicode="&#xd;" horiz-adv-x="681" />
<glyph unicode=" "  horiz-adv-x="573" />
<glyph unicode="&#x09;" horiz-adv-x="573" />
<glyph unicode="&#xa0;" horiz-adv-x="573" />
<glyph unicode="!" horiz-adv-x="471" d="M82 0v305h307v-305h-307zM82 1536h307l-41 -1049h-225z" />
<glyph unicode="&#x22;" horiz-adv-x="649" d="M20 1536h281l-51 -547h-178zM348 1536h281l-51 -547h-179z" />
<glyph unicode="#" horiz-adv-x="1105" d="M41 410v194h188l47 332h-157v194h184l57 406h220l-58 -406h142l57 406h219l-57 -406h164v-194h-191l-47 -332h180v-194h-207l-55 -410h-219l55 410h-141l-55 -410h-220l56 410h-162zM449 604h141l47 332h-141z" />
<glyph unicode="$" d="M82 346l254 53q16 -125 47 -170t90 -45q45 0 75 39t30 105q0 72 -51.5 149.5t-124 149t-145.5 148.5t-124 176.5t-51 203.5q0 158 70.5 257t197.5 130v187h246v-187q225 -53 268 -352l-254 -53q-16 125 -47 170t-90 45q-45 0 -74.5 -39t-29.5 -105q0 -72 53 -149.5 t129 -149t151.5 -148.5t129 -176.5t53.5 -203.5q0 -158 -79 -256t-210 -131v-187h-246v187q-227 53 -268 352z" />
<glyph unicode="%" horiz-adv-x="1413" d="M41 1059v258q0 113 73.5 176t196.5 63q121 0 195 -63t74 -176v-258q0 -113 -74 -176.5t-195 -63.5q-123 0 -196.5 63.5t-73.5 176.5zM256 1051q0 -100 55 -101q54 1 54 101v274q0 100 -54 100q-55 0 -55 -100v-274zM287 0l557 1536h274l-557 -1536h-274zM834 227v258 q0 113 73.5 176.5t196.5 63.5q121 0 194.5 -63.5t73.5 -176.5v-258q0 -113 -73.5 -176t-194.5 -63q-123 0 -196.5 63.5t-73.5 175.5zM1049 219q0 -100 55 -100q53 0 53 100v275q0 100 -53 100q-55 0 -55 -100v-275z" />
<glyph unicode="&#x26;" horiz-adv-x="1015" d="M41 362q0 143 55.5 249t151.5 206q-121 236 -121 402q0 154 92 245.5t244 91.5q137 0 225 -80.5t88 -224.5q0 -76 -33.5 -161.5t-70.5 -144t-103 -150.5l6 -11q76 -145 152 -270q33 102 47 211l232 -70q-27 -219 -119 -381q53 -80 94 -131l-207 -174q-27 33 -72 99 q-125 -88 -258 -88q-119 0 -203.5 36.5t-125.5 98t-57.5 122t-16.5 125.5zM360 379q1 -195 107 -195q61 0 117 60q-113 174 -187 299q-37 -80 -37 -164zM385 1257q0 -100 61 -229q84 113 84 229q0 115 -67 115q-78 0 -78 -115z" />
<glyph unicode="'" horiz-adv-x="321" d="M20 1536h281l-51 -547h-178z" />
<glyph unicode="(" horiz-adv-x="673" d="M102 710.5q0 563.5 326 952.5l223 -98q-291 -361 -291 -854.5t291 -853.5l-223 -99q-326 389 -326 952.5z" />
<glyph unicode=")" horiz-adv-x="673" d="M23 -143q290 360 290 853.5t-290 854.5l223 98q326 -389 325.5 -952.5t-325.5 -952.5z" />
<glyph unicode="*" horiz-adv-x="968" d="M61 1161l66 203l262 -98l-12 284h213l-12 -284l262 98l2 2l65 -203l-270 -71l176 -222l-172 -125l-158 238l-157 -238l-172 125l174 217z" />
<glyph unicode="+" horiz-adv-x="759" d="M41 610v226h225v227h226v-227h227v-226h-227v-225h-226v225h-225z" />
<glyph unicode="," horiz-adv-x="430" d="M82 -219l20 547h260l-81 -547h-199z" />
<glyph unicode="-" horiz-adv-x="514" d="M41 569v226h432v-226h-432z" />
<glyph unicode="." horiz-adv-x="450" d="M82 0v287h287v-287h-287z" />
<glyph unicode="/" horiz-adv-x="806" d="M20 -164l496 1864h270l-495 -1864h-271z" />
<glyph unicode="0" horiz-adv-x="966" d="M61 410v716q0 209 105.5 319.5t316.5 110.5t316.5 -110.5t105.5 -319.5v-716q0 -209 -105.5 -319.5t-316.5 -110.5t-316.5 110.5t-105.5 319.5zM369 387q0 -113 28.5 -158t86 -45t86 45t28.5 158v762q0 113 -28.5 158t-86 45t-86 -45t-28.5 -158v-762z" />
<glyph unicode="1" horiz-adv-x="827" d="M20 1303l402 233h176v-1311h209v-225h-746v225h230v977l-158 -94z" />
<glyph unicode="2" horiz-adv-x="905" d="M41 1190q51 367 391 366q205 0 308.5 -111.5t103.5 -318.5q0 -166 -85 -349t-364 -552h449v-225h-776v143q168 252 266 419t141 277.5t52.5 167t9.5 142.5q0 203 -105 203q-55 0 -88 -46t-49 -169z" />
<glyph unicode="3" horiz-adv-x="884" d="M41 346l254 53q16 -123 49 -169t88 -46q51 0 78 54.5t27 205.5q0 186 -40 245t-163 56v226q43 0 67.5 4t55 19.5t45 52t14.5 98.5q0 207 -104 207q-88 0 -117 -215l-254 53q29 203 138.5 284.5t252.5 81.5q190 0 290.5 -99t100.5 -288q0 -106 -52 -191t-138 -118 q86 -29 148.5 -126.5t62.5 -287.5q0 -244 -100.5 -355t-311.5 -111q-340 0 -391 366z" />
<glyph unicode="4" horiz-adv-x="944" d="M20 279v143l439 1114h317v-1032h148v-225h-148v-279h-266v279h-490zM285 504h225v600z" />
<glyph unicode="5" horiz-adv-x="864" d="M20 346l254 53q16 -123 49 -169t89 -46q104 0 104 203v160q0 76 -4 123t-18.5 84t-36 52t-63.5 19t-93 -5t-131 -29l-88 67v678h672v-225h-426v-301q223 72 359 -31.5t136 -431.5v-137q0 -207 -103.5 -318.5t-307.5 -111.5q-340 0 -392 366z" />
<glyph unicode="6" d="M61 410v716q0 207 103.5 318.5t308.5 111.5q340 0 391 -366l-254 -53q-16 123 -49 169t-88 46q-104 0 -104 -203v-201q133 53 241 53q150 0 222.5 -114.5t72.5 -368.5q0 -539 -422 -538q-211 0 -316.5 110.5t-105.5 319.5zM369 387q0 -113 28.5 -158t85.5 -45 q59 0 87 64.5t28 263.5q0 166 -24.5 230.5t-84.5 64.5q-48 0 -120 -43v-377z" />
<glyph unicode="7" horiz-adv-x="784" d="M20 1311v225h744v-143l-365 -1393h-317l360 1311h-422z" />
<glyph unicode="8" horiz-adv-x="966" d="M61 455q0 315 187 403q-166 76 -166 328q0 408 401.5 408t401.5 -408q0 -252 -168 -328q188 -88 188 -403q0 -250 -102.5 -362.5t-319.5 -112.5t-319.5 112.5t-102.5 362.5zM369 455q0 -170 26.5 -220.5t88 -50.5t88 50.5t26.5 220.5q0 168 -28.5 234.5t-86 66.5 t-86 -66.5t-28.5 -234.5zM369 1186q0 -129 28.5 -177t86 -48t86 48t28.5 177q0 113 -28.5 158t-86 45t-86 -45.5t-28.5 -157.5z" />
<glyph unicode="9" d="M41 1071q0 246 103.5 365.5t318.5 119.5q211 0 316.5 -110.5t105.5 -319.5v-716q0 -207 -103.5 -318.5t-308.5 -111.5q-340 0 -391 366l254 53q16 -123 49 -169t88 -46q105 0 105 203v303q-133 -53 -242 -53q-150 0 -222.5 103.5t-72.5 330.5zM348 1077 q0 -133 25.5 -189.5t83.5 -56.5q51 0 121 43v308q0 94 -29 132t-86 38q-59 0 -87 -54.5t-28 -220.5z" />
<glyph unicode=":" horiz-adv-x="450" d="M82 0v287h287v-287h-287zM82 901v287h287v-287h-287z" />
<glyph unicode=";" horiz-adv-x="471" d="M82 -219l20 547h260l-81 -547h-199zM102 901v287h287v-287h-287z" />
<glyph unicode="&#x3c;" horiz-adv-x="718" d="M41 633v225l637 387v-284l-373 -211v-9l373 -211v-284z" />
<glyph unicode="=" horiz-adv-x="759" d="M61 406v225h637v-225h-637zM61 815v225h637v-225h-637z" />
<glyph unicode="&#x3e;" horiz-adv-x="718" d="M41 246v284l373 211v9l-373 211v284l637 -387v-225z" />
<glyph unicode="?" horiz-adv-x="851" d="M20 1188q43 209 141.5 288.5t270.5 79.5q170 0 264.5 -106.5t94.5 -235.5v-45q0 -100 -28 -178t-68 -131t-81 -107.5t-68.5 -137.5t-27.5 -189v-4h-225v4q0 147 32.5 261t72.5 171t73 136t33 165v41q0 152 -101 152q-88 0 -129 -213zM252 0v305h307v-305h-307z" />
<glyph unicode="@" horiz-adv-x="1824" d="M61 610q0 418 229.5 683.5t633.5 265.5q381 0 610 -235.5t229 -651.5q0 -287 -116.5 -451t-309.5 -164q-121 0 -191.5 28t-121.5 99q-121 -102 -262 -102q-113 0 -191.5 82t-78.5 256v285q0 627 782 360v-662q0 -156 88 -155q70 0 105.5 75.5t35.5 292.5q0 125 -15 225.5 t-54 194.5t-102.5 156.5t-167 100.5t-240.5 38q-295 0 -445.5 -199.5t-150.5 -521.5q0 -897 850 -647l24 -215q-299 -76 -514 -47t-354 157t-206 317.5t-67 434.5zM778 408q0 -98 65.5 -117.5t143.5 41.5v622q-113 25 -161 -38.5t-48 -190.5v-317z" />
<glyph unicode="A" horiz-adv-x="942" d="M-20 0l354 1536h254l354 -1536h-315l-54 240h-307l-53 -240h-233zM315 465h209l-104 473z" />
<glyph unicode="B" horiz-adv-x="925" d="M61 0v1536h345q49 0 89 -3t98 -14.5t101 -37t85 -65.5t63.5 -106.5t21.5 -152.5q0 -219 -182 -297q223 -96 223 -389q0 -96 -19.5 -172t-47 -124t-72.5 -83t-84 -52t-93 -26.5t-86 -11.5t-77 -2h-365zM369 225h45q80 0 127 51.5t47 204.5q0 264 -158 264h-61v-520z M369 971h69q119 0 119 168q0 172 -119 172h-69v-340z" />
<glyph unicode="C" horiz-adv-x="905" d="M61 410v716q0 207 103.5 318.5t308.5 111.5q340 0 391 -366l-254 -53q-16 123 -49 169t-88 46q-104 0 -104 -203v-762q0 -203 104 -203q55 0 88 46t49 169l254 -53q-51 -366 -389 -366h-2q-205 0 -308.5 111.5t-103.5 318.5z" />
<glyph unicode="D" horiz-adv-x="956" d="M61 0v1536h412q211 0 316.5 -110.5t105.5 -319.5v-676q0 -209 -105.5 -319.5t-316.5 -110.5h-412zM369 225h104q57 0 86 45t29 158v680q0 113 -29 158t-86 45h-104v-1086z" />
<glyph unicode="E" horiz-adv-x="823" d="M61 0v1536h721v-225h-413v-215h342v-226h-342v-645h413v-225h-721z" />
<glyph unicode="F" horiz-adv-x="782" d="M61 0v1536h701v-225h-393v-215h321v-226h-321v-870h-308z" />
<glyph unicode="G" d="M61 410v716q0 207 103.5 318.5t308.5 111.5q340 0 391 -366l-254 -53q-16 123 -49 169t-88 46q-104 0 -104 -203v-762q0 -113 28.5 -158t86 -45t86 45t28.5 158v105h-127v225h393v-307q0 -430 -391 -430q-205 0 -308.5 111.5t-103.5 318.5z" />
<glyph unicode="H" horiz-adv-x="966" d="M61 0v1536h308v-604h229v604h307v-1536h-307v707h-229v-707h-308z" />
<glyph unicode="I" horiz-adv-x="430" d="M61 0v1536h308v-1536h-308z" />
<glyph unicode="J" horiz-adv-x="833" d="M20 346l254 53q29 -215 107 -215q94 0 94 203v1149h307v-1106q0 -119 -32.5 -208t-77.5 -134t-105.5 -70.5t-100.5 -31.5t-79 -6q-315 0 -367 366z" />
<glyph unicode="K" horiz-adv-x="1001" d="M61 0v1536h308v-629l293 629h262l-293 -606l330 -930h-326l-266 774v-774h-308z" />
<glyph unicode="L" horiz-adv-x="823" d="M61 0v1536h308v-1311h413v-225h-721z" />
<glyph unicode="M" horiz-adv-x="1333" d="M61 0v1536h357l262 -903l203 903h389v-1536h-307v901l-215 -901h-201l-242 901v-901h-246z" />
<glyph unicode="N" horiz-adv-x="987" d="M61 0v1536h336l283 -739v739h246v-1536h-246l-373 977v-977h-246z" />
<glyph unicode="O" horiz-adv-x="966" d="M61 410v716q0 209 105.5 319.5t316.5 110.5t316.5 -110.5t105.5 -319.5v-716q0 -209 -105.5 -319.5t-316.5 -110.5t-316.5 110.5t-105.5 319.5zM369 387q0 -113 28.5 -158t86 -45t86 45t28.5 158v762q0 113 -28.5 158t-86 45t-86 -45t-28.5 -158v-762z" />
<glyph unicode="P" horiz-adv-x="888" d="M61 0v1536h328q479 0 479 -424q0 -426 -489 -426h-10v-686h-308zM369 911h43q66 0 105.5 56.5t39.5 144.5t-36 143.5t-99 55.5h-53v-400z" />
<glyph unicode="Q" horiz-adv-x="966" d="M61 410v716q0 209 105.5 319.5t316.5 110.5t316.5 -110.5t105.5 -319.5v-716q0 -231 -127 -340q63 -59 209 -115l-113 -231q-233 92 -325 260q-41 -4 -66 -4q-211 0 -316.5 110.5t-105.5 319.5zM369 387q0 -113 28.5 -158t86 -45t86 45t28.5 158v762q0 113 -28.5 158 t-86 45t-86 -45t-28.5 -158v-762z" />
<glyph unicode="R" d="M61 0v1536h342q481 0 482 -383q0 -242 -230 -307q104 -39 159.5 -131t59.5 -217l11 -273q2 -59 14 -129.5t27 -95.5h-308q-14 25 -26 95.5t-14 129.5l-11 275q-4 113 -61 170t-137 57v-727h-308zM369 973h51q158 0 158 168q0 170 -138 170h-71v-338z" />
<glyph unicode="S" d="M82 346l254 53q16 -125 47 -170t90 -45q45 0 75 39t30 105q0 72 -51.5 149.5t-124 149t-145.5 148.5t-124 176.5t-51 203.5q0 195 106.5 298t284.5 103q340 0 391 -366l-254 -53q-16 125 -47 170t-90 45q-45 0 -74.5 -39t-29.5 -105q0 -72 53 -149.5t129 -149 t151.5 -148.5t129 -176.5t53.5 -203.5q0 -193 -115 -297t-297 -104q-340 0 -391 366z" />
<glyph unicode="T" horiz-adv-x="765" d="M20 1311v225h725v-225h-208v-1311h-308v1311h-209z" />
<glyph unicode="U" horiz-adv-x="966" d="M61 410v1126h308v-1149q0 -113 28.5 -158t86 -45t86 45t28.5 158v1149h307v-1126q0 -209 -105.5 -319.5t-316.5 -110.5t-316.5 110.5t-105.5 319.5z" />
<glyph unicode="V" horiz-adv-x="942" d="M0 1536h315l207 -938l207 938h234l-355 -1536h-254z" />
<glyph unicode="W" horiz-adv-x="1353" d="M0 1536h295l139 -831l152 831h254l149 -831l141 831h234l-272 -1536h-254l-156 856l-156 -856h-254z" />
<glyph unicode="X" horiz-adv-x="958" d="M-20 0l348 770l-308 766h340l148 -410l168 410h262l-307 -676l348 -860h-340l-188 504l-209 -504h-262z" />
<glyph unicode="Y" horiz-adv-x="999" d="M0 1536h330l207 -571l223 571h239l-346 -831v-705h-307v705z" />
<glyph unicode="Z" horiz-adv-x="866" d="M41 0v143l416 1168h-396v225h744v-143l-416 -1168h436v-225h-784z" />
<glyph unicode="[" horiz-adv-x="636" d="M61 -229v1892h535v-225h-227v-1442h227v-225h-535z" />
<glyph unicode="\" horiz-adv-x="806" d="M20 1700h271l495 -1864h-270z" />
<glyph unicode="]" horiz-adv-x="636" d="M41 -4h227v1442h-227v225h534v-1892h-534v225z" />
<glyph unicode="^" horiz-adv-x="839" d="M61 868l240 861h238l239 -861h-227l-127 506h-8l-127 -506h-228z" />
<glyph unicode="_" horiz-adv-x="677" d="M41 -41h596v-225h-596v225z" />
<glyph unicode="`" horiz-adv-x="645" d="M164 1591h289l90 -321h-191z" />
<glyph unicode="a" horiz-adv-x="894" d="M31 293q0 178 96 281.5t305 162.5l94 27v65q0 102 -26.5 143.5t-77.5 41.5q-53 0 -88 -43t-51 -158l-224 41q27 199 121 276.5t242 77.5q391 0 391 -399v-809h-246l-20 61q-122 -81 -245 -81h-3q-115 0 -191.5 80.5t-76.5 232.5zM317 305q1 -87 57 -113q16 -7 35 -8 q48 0 117 45v349q-109 -33 -159 -95.5t-50 -177.5z" />
<glyph unicode="b" d="M82 0v1536h287v-410q117 82 245 82q111 0 180.5 -80.5t69.5 -257.5v-553q0 -176 -69.5 -256.5t-180.5 -80.5q-129 0 -245 81v-61h-287zM369 236q78 -61 131 -62q78 0 78 123v594q0 123 -78 123q-53 -1 -131 -62v-716z" />
<glyph unicode="c" horiz-adv-x="856" d="M61 379v430q0 399 392 399q147 0 241 -77.5t121 -276.5l-223 -41q-16 115 -51 158t-88 43q-51 0 -78 -41t-27 -144v-471q0 -102 26.5 -143t78.5 -41q53 0 87.5 43t51.5 158l223 -41q-27 -199 -121 -276.5t-241 -77.5q-392 0 -392 399z" />
<glyph unicode="d" d="M82 317v553q0 176 69.5 257t180.5 81q129 0 246 -82v410h286v-1536h-286v61q-116 -81 -243 -81h-3q-111 0 -180.5 80.5t-69.5 256.5zM369 297q0 -123 77 -123q54 1 132 62v716q-78 61 -132 62q-78 0 -77 -123v-594z" />
<glyph unicode="e" horiz-adv-x="884" d="M61 379v430q0 399 391.5 399t391.5 -399v-240h-496v-211q0 -102 26.5 -143t78.5 -41q53 0 87.5 43t51.5 158l223 -41q-27 -199 -121 -276.5t-241 -77.5q-391 0 -392 399zM348 754h209v75q0 102 -26.5 143.5t-78 41.5t-78 -41.5t-26.5 -143.5v-75z" />
<glyph unicode="f" horiz-adv-x="710" d="M10 1004v184h133q6 147 53.5 237.5t130.5 120.5q62 23 133 23q24 0 50 -3q100 -10 221 -57l-80 -196q-101 55 -151 55q-13 0 -22 -4q-48 -16 -48 -156v-20h205v-184h-205v-1004h-287v1004h-133z" />
<glyph unicode="g" d="M82 399v471q0 176 69.5 257t180.5 81q129 0 246 -82v62h286v-1069q0 -164 -68.5 -267.5t-179.5 -135.5q-76 -21 -162 -21q-38 0 -78 4q-130 14 -265 72l82 217q163 -89 257 -89q128 0 128 164v80q-117 -82 -246 -82q-111 0 -180.5 81t-69.5 257zM369 379q0 -123 77 -123 q54 0 132 61v635q-78 61 -132 62q-78 0 -77 -123v-512z" />
<glyph unicode="h" d="M82 0v1536h287v-410q117 82 245 82q111 0 180.5 -80.5t69.5 -257.5v-870h-286v891q0 123 -78 123q-53 0 -131 -62v-952h-287z" />
<glyph unicode="i" horiz-adv-x="450" d="M82 0v1188h287v-1188h-287zM82 1300v236h287v-236h-287z" />
<glyph unicode="j" horiz-adv-x="491" d="M-33 -139q63 43 90 67.5t46.5 81t19.5 150.5v1028h287v-998q0 -74 -14.5 -142t-46.5 -137t-93 -126t-147 -92zM123 1300v236h287v-236h-287z" />
<glyph unicode="k" horiz-adv-x="901" d="M82 0v1536h287v-834l227 486h258l-227 -469l254 -719h-306l-206 600v-600h-287z" />
<glyph unicode="l" horiz-adv-x="450" d="M82 0v1536h287v-1536h-287z" />
<glyph unicode="m" horiz-adv-x="1400" d="M82 0v1188h287v-62q113 82 235 82q127 0 189 -104q145 104 286 104q106 0 173 -80.5t67 -257.5v-870h-287v891q0 123 -69 123q-49 0 -123 -64q4 -49 4 -80v-870h-287v891q0 123 -70 123q-47 0 -118 -62v-952h-287z" />
<glyph unicode="n" d="M82 0v1188h287v-62q117 82 245 82q111 0 180.5 -80.5t69.5 -257.5v-870h-286v891q0 123 -78 123q-53 0 -131 -62v-952h-287z" />
<glyph unicode="o" horiz-adv-x="905" d="M61 379v430q0 399 391.5 399t391.5 -399v-430q0 -399 -391.5 -399t-391.5 399zM348 358q0 -102 26.5 -143t78 -41t78 41t26.5 143v471q0 102 -26.5 143.5t-78 41.5t-78 -41t-26.5 -144v-471z" />
<glyph unicode="p" d="M82 -287v1475h287v-62q117 82 245 82q111 0 180.5 -80.5t69.5 -257.5v-553q0 -176 -69.5 -256.5t-180.5 -80.5q-129 0 -245 81v-348h-287zM369 236q78 -61 131 -62q78 0 78 123v594q0 123 -78 123q-53 -1 -131 -62v-716z" />
<glyph unicode="q" d="M82 317v553q0 176 69.5 257t180.5 81q129 0 246 -82v62h286v-1475h-286v348q-116 -81 -243 -81h-3q-111 0 -180.5 80.5t-69.5 256.5zM369 297q0 -123 77 -123q54 1 132 62v716q-78 61 -132 62q-78 0 -77 -123v-594z" />
<glyph unicode="r" horiz-adv-x="698" d="M82 0v1188h287v-158q39 90 119.5 134t168.5 44l41 -268q-34 2 -64 2q-190 0 -265 -96v-846h-287z" />
<glyph unicode="s" horiz-adv-x="770" d="M43 334l223 41q14 -201 113 -201q84 0 84 102q0 45 -42 94.5t-101.5 99.5t-119 107.5t-101.5 138.5t-42 171q0 152 96 236.5t246 84.5q143 0 227.5 -84t106.5 -270l-223 -41q-14 201 -113 201q-84 0 -84 -103q0 -45 44 -94t106.5 -99t125 -107.5t106.5 -138.5t44 -171 q0 -150 -105.5 -235.5t-256.5 -85.5q-143 0 -227 83.5t-107 270.5z" />
<glyph unicode="t" horiz-adv-x="669" d="M0 1004v184h133v221l287 61v-282h205v-184h-205v-619q0 -94 15.5 -132t56.5 -38q57 0 122 47l56 -182q-135 -100 -271 -100q-117 0 -191.5 81.5t-74.5 243.5v699h-133z" />
<glyph unicode="u" d="M82 317v871h287v-891q0 -123 77 -123q53 0 132 62v952h286v-1188h-286v61q-116 -81 -243 -81h-3q-111 0 -180.5 80.5t-69.5 256.5z" />
<glyph unicode="v" horiz-adv-x="833" d="M0 1188h291l172 -735l172 735h209l-295 -1188h-254z" />
<glyph unicode="w" horiz-adv-x="1318" d="M0 1188h281l139 -701l153 701h254l152 -701l141 701h209l-254 -1188h-254l-157 719l-156 -719h-254z" />
<glyph unicode="x" horiz-adv-x="917" d="M0 0l313 586l-293 602h320l139 -309l156 309h242l-283 -526l324 -662h-320l-170 369l-186 -369h-242z" />
<glyph unicode="y" horiz-adv-x="845" d="M0 1188h291l178 -707l166 707h209l-260 -1053q-45 -180 -109.5 -287.5t-165.5 -175.5l-213 183q156 82 221 190z" />
<glyph unicode="z" horiz-adv-x="743" d="M20 0v141l357 842h-336v205h661v-141l-356 -842h377v-205h-703z" />
<glyph unicode="{" horiz-adv-x="798" d="M20 602v225h33q111 0 151 46.5t40 164.5v297q0 201 85 290t294 89h155v-225h-37q-111 0 -150.5 -46t-39.5 -165v-268q0 -199 -174 -291v-8q174 -92 174 -291v-264q0 -119 40 -165t150 -46h37v-226h-155q-209 0 -294 89.5t-85 289.5v293q0 119 -40 165t-151 46h-33z" />
<glyph unicode="|" horiz-adv-x="370" d="M61 -164v1864h248v-1864h-248z" />
<glyph unicode="}" horiz-adv-x="798" d="M20 -55h37q111 0 151 46t40 165v264q0 199 174 291v8q-174 92 -174 291v268q0 119 -40 165t-151 46h-37v225h156q209 0 294 -89t85 -290v-297q0 -119 40 -165t150 -46h33v-225h-33q-111 0 -150.5 -46t-39.5 -165v-293q0 -201 -85 -290t-294 -89h-156v226z" />
<glyph unicode="~" horiz-adv-x="735" d="M41 621v2q0 98 51 185t162 87q68 0 133.5 -48t91.5 -48q51 0 51 55v25l162 -33v-2q2 -98 -47 -184.5t-166 -86.5q-68 0 -132 49.5t-91 49.5q-53 0 -53 -62v-20z" />
<glyph unicode="&#xa2;" horiz-adv-x="856" d="M61 379v430q0 328 269 387v205h245v-209q199 -53 240 -338l-223 -41q-16 115 -51 158t-88 43q-51 0 -78 -41t-27 -144v-471q0 -102 26.5 -143t78.5 -41q53 0 87.5 43t51.5 158l223 -41q-41 -289 -240 -340v-207h-245v205q-268 57 -269 387z" />
<glyph unicode="&#xa3;" horiz-adv-x="802" d="M61 0v225q129 223 150 316h-139v225h112q-10 31 -48 118t-56.5 152.5t-18.5 137.5q0 176 106.5 279t285.5 103q152 0 247 -79.5t123 -286.5l-254 -53q-16 127 -40.5 171t-75.5 44q-33 0 -58.5 -39t-25.5 -117q0 -82 20.5 -155.5t53 -150.5t44.5 -124h181v-225h-176 q-31 -131 -144 -316h434v-225h-721z" />
<glyph unicode="&#xa5;" horiz-adv-x="999" d="M0 1536h330l207 -571l223 571h239l-288 -692h127v-226h-185v-110h185v-225h-185v-283h-307v283h-186v225h186v110h-186v226h127z" />
<glyph unicode="&#xa8;" horiz-adv-x="825" d="M100 1300v236h267v-236h-267zM457 1300v236h266v-236h-266z" />
<glyph unicode="&#xa9;" horiz-adv-x="1617" d="M20 764q0 330 229.5 561t555.5 231q330 0 561 -231t231 -561q0 -326 -231 -555t-561 -229q-326 0 -555.5 229t-229.5 555zM215 764q0 -244 173 -417t417 -173q248 0 423 173t175 417q0 248 -175 423t-423 175q-244 0 -417 -175t-173 -423zM504 588v356q0 332 323 332 q123 0 202 -64.5t99 -230.5l-184 -33q-12 96 -42 131t-75 35q-86 0 -86 -153v-392q0 -152 86 -151q45 0 75 34.5t42 131.5l184 -35q-20 -166 -99 -229.5t-202 -63.5q-323 0 -323 332z" />
<glyph unicode="&#xab;" horiz-adv-x="884" d="M20 528v185l322 305l113 -221l-185 -176l185 -179l-113 -219zM430 528v185l322 305l112 -221l-184 -176l184 -179l-112 -219z" />
<glyph unicode="&#xad;" horiz-adv-x="514" d="M41 569v226h432v-226h-432z" />
<glyph unicode="&#xae;" horiz-adv-x="917" d="M61 1161q0 174 111 286t287 112t286.5 -112t110.5 -286t-110.5 -285.5t-286.5 -111.5t-287 111.5t-111 285.5zM154 1161q0 -135 85 -220t220 -85t220 85t85 220t-85 220t-220 85t-220 -85t-85 -220zM328 922v489h114q164 0 164 -133q0 -82 -76 -102q70 -29 70 -123l6 -54 q0 -53 15 -77h-105q-12 20 -12 77l-4 54q-2 41 -21.5 61.5t-48.5 20.5v-213h-102zM430 1219h21q53 0 53 57q0 55 -47 55h-27v-112z" />
<glyph unicode="&#xaf;" horiz-adv-x="843" d="M113 1311v186h546v-186h-546z" />
<glyph unicode="&#xb4;" horiz-adv-x="645" d="M102 1270l91 321h309l-209 -321h-191z" />
<glyph unicode="&#xb8;" horiz-adv-x="587" d="M74 -393l24 139q53 -25 108.5 -25t55.5 52q0 59 -106 69l55 221h154l-37 -137q66 -12 105.5 -56t39.5 -118q0 -127 -124.5 -169t-274.5 24z" />
<glyph unicode="&#xbb;" horiz-adv-x="884" d="M20 442l185 179l-185 176l113 221l322 -305v-185l-322 -305zM430 442l184 179l-184 176l113 221l321 -305v-185l-321 -305z" />
<glyph unicode="&#xc1;" horiz-adv-x="942" d="M-20 0l354 1536h254l354 -1536h-315l-54 240h-307l-53 -240h-233zM315 465h209l-104 473zM338 1618l111 280h309l-230 -280h-190z" />
<glyph unicode="&#xc4;" horiz-adv-x="942" d="M-20 0l354 1536h254l354 -1536h-315l-54 240h-307l-53 -240h-233zM129 1628v242h295v-242h-295zM315 465h209l-104 473zM514 1628v242h297v-242h-297z" />
<glyph unicode="&#xc9;" horiz-adv-x="823" d="M61 0v1536h721v-225h-413v-215h342v-226h-342v-645h413v-225h-721zM303 1618l111 280h309l-229 -280h-191z" />
<glyph unicode="&#xcd;" horiz-adv-x="430" d="M59 1618l111 280h309l-229 -280h-191zM61 0v1536h308v-1536h-308z" />
<glyph unicode="&#xd3;" horiz-adv-x="966" d="M61 410v716q0 209 105.5 319.5t316.5 110.5t316.5 -110.5t105.5 -319.5v-716q0 -209 -105.5 -319.5t-316.5 -110.5t-316.5 110.5t-105.5 319.5zM369 387q0 -113 28.5 -158t86 -45t86 45t28.5 158v762q0 113 -28.5 158t-86 45t-86 -45t-28.5 -158v-762zM375 1618l110 280 h310l-230 -280h-190z" />
<glyph unicode="&#xd4;" horiz-adv-x="966" d="M61 410v716q0 209 105.5 319.5t316.5 110.5t316.5 -110.5t105.5 -319.5v-716q0 -209 -105.5 -319.5t-316.5 -110.5t-316.5 110.5t-105.5 319.5zM209 1618l137 280h275l137 -280h-228l-47 137l-47 -137h-227zM369 387q0 -113 28.5 -158t86 -45t86 45t28.5 158v762 q0 113 -28.5 158t-86 45t-86 -45t-28.5 -158v-762z" />
<glyph unicode="&#xda;" horiz-adv-x="966" d="M61 410v1126h308v-1149q0 -113 28.5 -158t86 -45t86 45t28.5 158v1149h307v-1126q0 -209 -105.5 -319.5t-316.5 -110.5t-316.5 110.5t-105.5 319.5zM354 1618l111 280h309l-229 -280h-191z" />
<glyph unicode="&#xdd;" horiz-adv-x="999" d="M0 1536h330l207 -571l223 571h239l-346 -831v-705h-307v705zM449 1618l110 280h309l-229 -280h-190z" />
<glyph unicode="&#xe1;" horiz-adv-x="894" d="M31 293q0 178 96 281.5t305 162.5l94 27v65q0 102 -26.5 143.5t-77.5 41.5q-53 0 -88 -43t-51 -158l-224 41q27 199 121 276.5t242 77.5q391 0 391 -399v-809h-246l-20 61q-123 -82 -248 -81q-115 0 -191.5 80.5t-76.5 232.5zM317 305q0 -88 56.5 -113.5t152.5 37.5v349 q-109 -33 -159 -95.5t-50 -177.5zM330 1270l90 321h309l-209 -321h-190z" />
<glyph unicode="&#xe4;" horiz-adv-x="894" d="M31 293q0 178 96 281.5t305 162.5l94 27v65q0 102 -26.5 143.5t-77.5 41.5q-53 0 -88 -43t-51 -158l-224 41q27 199 121 276.5t242 77.5q391 0 391 -399v-809h-246l-20 61q-123 -82 -248 -81q-115 0 -191.5 80.5t-76.5 232.5zM135 1300v236h266v-236h-266zM317 305 q0 -88 56.5 -113.5t152.5 37.5v349q-109 -33 -159 -95.5t-50 -177.5zM492 1300v236h266v-236h-266z" />
<glyph unicode="&#xe9;" horiz-adv-x="884" d="M61 379v430q0 399 391.5 399t391.5 -399v-240h-496v-211q0 -102 26.5 -143t78.5 -41q53 0 87.5 43t51.5 158l223 -41q-27 -199 -121 -276.5t-241 -77.5q-391 0 -392 399zM348 754h209v75q0 102 -26.5 143.5t-78 41.5t-78 -41.5t-26.5 -143.5v-75zM365 1270l90 321h309 l-209 -321h-190z" />
<glyph unicode="&#xed;" horiz-adv-x="450" d="M82 0v1188h287v-1188h-287zM82 1270l90 321h309l-209 -321h-190z" />
<glyph unicode="&#xf3;" horiz-adv-x="905" d="M61 379v430q0 399 391.5 399t391.5 -399v-430q0 -399 -391.5 -399t-391.5 399zM348 358q0 -102 26.5 -143t78 -41t78 41t26.5 143v471q0 102 -26.5 143.5t-78 41.5t-78 -41t-26.5 -144v-471zM354 1270l90 321h310l-209 -321h-191z" />
<glyph unicode="&#xf4;" horiz-adv-x="905" d="M61 379v430q0 399 391.5 399t391.5 -399v-430q0 -399 -391.5 -399t-391.5 399zM168 1270l145 321h279l145 -321h-225l-59 176l-60 -176h-225zM348 358q0 -102 26.5 -143t78 -41t78 41t26.5 143v471q0 102 -26.5 143.5t-78 41.5t-78 -41t-26.5 -144v-471z" />
<glyph unicode="&#xfa;" d="M82 317v871h287v-891q0 -123 77 -123q53 0 132 62v952h286v-1188h-286v61q-117 -82 -246 -81q-111 0 -180.5 80.5t-69.5 256.5zM354 1270l90 321h310l-209 -321h-191z" />
<glyph unicode="&#xfd;" horiz-adv-x="845" d="M0 1188h291l178 -707l166 707h209l-260 -1053q-45 -180 -109.5 -287.5t-165.5 -175.5l-213 183q156 82 221 190zM346 1270l90 321h309l-208 -321h-191z" />
<glyph unicode="&#x10c;" horiz-adv-x="905" d="M61 410v716q0 207 103.5 318.5t308.5 111.5q340 0 391 -366l-254 -53q-16 123 -49 169t-88 46q-104 0 -104 -203v-762q0 -203 104 -203q55 0 88 46t49 169l254 -53q-51 -367 -391 -366q-205 0 -308.5 111.5t-103.5 318.5zM199 1898h227l47 -137l47 137h228l-138 -280 h-274z" />
<glyph unicode="&#x10d;" horiz-adv-x="856" d="M61 379v430q0 399 392 399q147 0 241 -77.5t121 -276.5l-223 -41q-16 115 -51 158t-88 43q-51 0 -78 -41t-27 -144v-471q0 -102 26.5 -143t78.5 -41q53 0 87.5 43t51.5 158l223 -41q-27 -199 -121 -276.5t-241 -77.5q-392 0 -392 399zM168 1591h225l53 -170l54 170h225 l-145 -321h-267z" />
<glyph unicode="&#x10e;" horiz-adv-x="956" d="M61 0v1536h412q211 0 316.5 -110.5t105.5 -319.5v-676q0 -209 -105.5 -319.5t-316.5 -110.5h-412zM162 1898h227l47 -137l47 137h228l-138 -280h-274zM369 225h104q57 0 86 45t29 158v680q0 113 -29 158t-86 45h-104v-1086z" />
<glyph unicode="&#x10f;" horiz-adv-x="1181" d="M82 317v553q0 176 69.5 257t180.5 81q129 0 246 -82v410h286v-1536h-286v61q-117 -82 -246 -81q-111 0 -180.5 80.5t-69.5 256.5zM369 297q0 -123 77 -123q54 1 132 62v716q-78 61 -132 62q-78 0 -77 -123v-594zM926 1229l41 409h256l-113 -409h-184z" />
<glyph unicode="&#x11a;" horiz-adv-x="823" d="M61 0v1536h721v-225h-413v-215h342v-226h-342v-645h413v-225h-721zM154 1898h227l47 -137l47 137h227l-137 -280h-274z" />
<glyph unicode="&#x11b;" horiz-adv-x="884" d="M61 379v430q0 399 391.5 399t391.5 -399v-240h-496v-211q0 -102 26.5 -143t78.5 -41q53 0 87.5 43t51.5 158l223 -41q-27 -199 -121 -276.5t-241 -77.5q-391 0 -392 399zM178 1591h225l54 -170l53 170h225l-145 -321h-266zM348 754h209v75q0 102 -26.5 143.5t-78 41.5 t-78 -41.5t-26.5 -143.5v-75z" />
<glyph unicode="&#x139;" horiz-adv-x="802" d="M61 0v1536h308v-1311h413v-225h-721zM61 1618l111 280h309l-229 -280h-191z" />
<glyph unicode="&#x13a;" horiz-adv-x="450" d="M82 0v1536h287v-1536h-287zM82 1618l111 280h309l-230 -280h-190z" />
<glyph unicode="&#x13d;" horiz-adv-x="802" d="M61 0v1536h308v-1311h413v-225h-721zM485 1229l41 409h256l-112 -409h-185z" />
<glyph unicode="&#x13e;" horiz-adv-x="686" d="M82 0v1536h287v-1536h-287zM430 1229l41 409h256l-113 -409h-184z" />
<glyph unicode="&#x147;" horiz-adv-x="987" d="M61 0v1536h336l283 -739v739h246v-1536h-246l-373 977v-977h-246zM219 1898h227l48 -137l47 137h227l-137 -280h-275z" />
<glyph unicode="&#x148;" d="M82 0v1188h287v-62q117 82 245 82q111 0 180.5 -80.5t69.5 -257.5v-870h-286v891q0 123 -78 123q-53 0 -131 -62v-952h-287zM195 1591h225l53 -170l53 170h226l-146 -321h-266z" />
<glyph unicode="&#x154;" d="M61 0v1536h342q481 0 482 -383q0 -242 -230 -307q104 -39 159.5 -131t59.5 -217l11 -273q2 -59 14 -129.5t27 -95.5h-308q-14 25 -26 95.5t-14 129.5l-11 275q-4 113 -61 170t-137 57v-727h-308zM283 1618l110 280h309l-229 -280h-190zM369 973h51q158 0 158 168 q0 170 -138 170h-71v-338z" />
<glyph unicode="&#x155;" horiz-adv-x="698" d="M82 0v1188h287v-158q39 90 119.5 134t168.5 44l41 -268q-242 18 -329 -94v-846h-287zM281 1270l90 321h309l-209 -321h-190z" />
<glyph unicode="&#x158;" d="M61 0v1536h342q481 0 482 -383q0 -242 -230 -307q104 -39 159.5 -131t59.5 -217l11 -273q2 -59 14 -129.5t27 -95.5h-308q-14 25 -26 95.5t-14 129.5l-11 275q-4 113 -61 170t-137 57v-727h-308zM158 1898h227l47 -137l47 137h228l-138 -280h-274zM369 973h51 q158 0 158 168q0 170 -138 170h-71v-338z" />
<glyph unicode="&#x159;" horiz-adv-x="698" d="M82 0v1188h287v-158q39 90 119.5 134t168.5 44l41 -268q-242 18 -329 -94v-846h-287zM113 1591h225l53 -170l53 170h226l-146 -321h-266z" />
<glyph unicode="&#x160;" d="M82 346l254 53q16 -125 47 -170t90 -45q45 0 75 39t30 105q0 72 -51.5 149.5t-124 149t-145.5 148.5t-124 176.5t-51 203.5q0 195 106.5 298t284.5 103q340 0 391 -366l-254 -53q-16 125 -47 170t-90 45q-45 0 -74.5 -39t-29.5 -105q0 -72 53 -149.5t129 -149 t151.5 -148.5t129 -176.5t53.5 -203.5q0 -193 -115 -297t-297 -104q-340 0 -391 366zM215 1898h227l47 -137l48 137h227l-137 -280h-275z" />
<glyph unicode="&#x161;" horiz-adv-x="770" d="M43 334l223 41q14 -201 113 -201q84 0 84 102q0 45 -42 94.5t-101.5 99.5t-119 107.5t-101.5 138.5t-42 171q0 152 96 236.5t246 84.5q143 0 227.5 -84t106.5 -270l-223 -41q-14 201 -113 201q-84 0 -84 -103q0 -45 44 -94t106.5 -99t125 -107.5t106.5 -138.5t44 -171 q0 -150 -105.5 -235.5t-256.5 -85.5q-143 0 -227 83.5t-107 270.5zM117 1591h225l53 -170l54 170h225l-146 -321h-266z" />
<glyph unicode="&#x164;" horiz-adv-x="765" d="M20 1311v225h725v-225h-208v-1311h-308v1311h-209zM109 1898h227l47 -137l47 137h227l-137 -280h-274z" />
<glyph unicode="&#x165;" horiz-adv-x="743" d="M0 1004v184h133v221l287 61v-282h205v-184h-205v-619q0 -94 15.5 -132t56.5 -38q57 0 122 47l56 -182q-135 -100 -271 -100q-117 0 -191.5 81.5t-74.5 243.5v699h-133zM487 1270l41 409h256l-112 -409h-185z" />
<glyph unicode="&#x16e;" horiz-adv-x="966" d="M61 410v1126h308v-1149q0 -113 28.5 -158t86 -45t86 45t28.5 158v1149h307v-1126q0 -209 -105.5 -319.5t-316.5 -110.5t-316.5 110.5t-105.5 319.5zM266 1810.5q0 96.5 60.5 157t157 60.5t156.5 -60.5t60 -157t-60 -157t-156.5 -60.5t-157 60.5t-60.5 157zM406 1810.5 q0 -77.5 77.5 -77.5t77.5 77.5t-77.5 77.5t-77.5 -77.5z" />
<glyph unicode="&#x16f;" d="M82 317v871h287v-891q0 -123 77 -123q53 0 132 62v952h286v-1188h-286v61q-117 -82 -246 -81q-111 0 -180.5 80.5t-69.5 256.5zM256 1462.5q0 96.5 60.5 156.5t156.5 60t156.5 -60t60.5 -156.5t-60.5 -157t-156.5 -60.5t-156.5 60.5t-60.5 157zM389 1462q0 -84 84 -84 t84 84t-84 84t-84 -84z" />
<glyph unicode="&#x17d;" horiz-adv-x="825" d="M20 0v143l416 1168h-395v225h743v-143l-415 -1168h436v-225h-785zM141 1898h228l47 -137l47 137h227l-137 -280h-274z" />
<glyph unicode="&#x17e;" horiz-adv-x="743" d="M20 0v141l357 842h-336v205h661v-141l-356 -842h377v-205h-703zM104 1591h226l53 -170l53 170h226l-146 -321h-266z" />
<glyph unicode="&#x2c6;" horiz-adv-x="843" d="M121 1270l145 321h279l145 -321h-225l-59 176l-60 -176h-225z" />
<glyph unicode="&#x2da;" horiz-adv-x="638" d="M102 1462.5q0 96.5 60.5 156.5t157 60t157 -60t60.5 -156.5t-60.5 -157t-157 -60.5t-157 60.5t-60.5 157zM236 1462q0 -84 83.5 -84t83.5 84t-83.5 84t-83.5 -84z" />
<glyph unicode="&#x2dc;" horiz-adv-x="829" d="M109 1307v2q0 90 46 168.5t146 78.5q63 0 121.5 -44t83.5 -44q47 0 47 52v22l147 -31v-2q2 -88 -43 -166.5t-151 -78.5q-61 0 -119.5 45t-83.5 45q-47 0 -47 -56v-18z" />
<glyph unicode="&#x2000;" horiz-adv-x="1014" />
<glyph unicode="&#x2001;" horiz-adv-x="2028" />
<glyph unicode="&#x2002;" horiz-adv-x="1014" />
<glyph unicode="&#x2003;" horiz-adv-x="2028" />
<glyph unicode="&#x2004;" horiz-adv-x="676" />
<glyph unicode="&#x2005;" horiz-adv-x="507" />
<glyph unicode="&#x2006;" horiz-adv-x="338" />
<glyph unicode="&#x2007;" horiz-adv-x="338" />
<glyph unicode="&#x2008;" horiz-adv-x="253" />
<glyph unicode="&#x2009;" horiz-adv-x="405" />
<glyph unicode="&#x200a;" horiz-adv-x="112" />
<glyph unicode="&#x2010;" horiz-adv-x="514" d="M41 569v226h432v-226h-432z" />
<glyph unicode="&#x2011;" horiz-adv-x="514" d="M41 569v226h432v-226h-432z" />
<glyph unicode="&#x2012;" horiz-adv-x="514" d="M41 569v226h432v-226h-432z" />
<glyph unicode="&#x2013;" horiz-adv-x="677" d="M41 569v226h596v-226h-596z" />
<glyph unicode="&#x2014;" horiz-adv-x="821" d="M41 569v226h739v-226h-739z" />
<glyph unicode="&#x2018;" horiz-adv-x="430" d="M68 989l82 547h198l-20 -547h-260z" />
<glyph unicode="&#x2019;" horiz-adv-x="430" d="M82 989l20 547h260l-81 -547h-199z" />
<glyph unicode="&#x201a;" horiz-adv-x="430" d="M82 -219l20 547h260l-81 -547h-199z" />
<glyph unicode="&#x201c;" horiz-adv-x="753" d="M68 989l82 547h198l-20 -547h-260zM391 989l82 547h199l-21 -547h-260z" />
<glyph unicode="&#x201d;" horiz-adv-x="753" d="M82 989l20 547h260l-81 -547h-199zM406 989l20 547h260l-82 -547h-198z" />
<glyph unicode="&#x201e;" horiz-adv-x="753" d="M82 -219l20 547h260l-81 -547h-199zM406 -219l20 547h260l-82 -547h-198z" />
<glyph unicode="&#x2020;" horiz-adv-x="1093" d="M82 977v225h342l-31 533h307l-30 -533h342v-225h-342l30 -1229h-307l31 1229h-342z" />
<glyph unicode="&#x2021;" horiz-adv-x="1093" d="M82 281v225h342l2 235l-2 236h-342v225h342l-31 533h307l-30 -533h342v-225h-342l-2 -236l2 -235h342v-225h-342l30 -533h-307l31 533h-342z" />
<glyph unicode="&#x2022;" horiz-adv-x="761" d="M61 716.5q0 141.5 89.5 230.5t230.5 89t230 -89t89 -230.5t-89 -230.5t-230 -89t-230.5 89t-89.5 230.5z" />
<glyph unicode="&#x2026;" horiz-adv-x="1351" d="M82 0v287h287v-287h-287zM532 0v287h287v-287h-287zM983 0v287h287v-287h-287z" />
<glyph unicode="&#x202f;" horiz-adv-x="405" />
<glyph unicode="&#x2039;" horiz-adv-x="516" d="M20 528v185l363 305l113 -221l-226 -176l226 -179l-113 -219z" />
<glyph unicode="&#x203a;" horiz-adv-x="516" d="M20 442l226 179l-226 176l113 221l363 -305v-185l-363 -305z" />
<glyph unicode="&#x205f;" horiz-adv-x="507" />
<glyph unicode="&#x20ac;" horiz-adv-x="958" d="M20 508v205h95v102h-95v205h95v106q0 207 103.5 318.5t307.5 111.5q340 0 392 -366l-254 -53q-16 123 -49 169t-89 46q-104 0 -104 -203v-129h254v-205h-254v-102h254v-205h-254v-121q0 -203 104 -203q55 0 88 46t50 169l254 -53q-51 -367 -392 -366q-205 0 -308 111.5 t-103 318.5v98h-95z" />
<glyph unicode="&#x25fc;" horiz-adv-x="1187" d="M0 0v1188h1188v-1188h-1188z" />
</font>
</defs>
</svg>
